夜色中的地球S01~S02 4K全集下载

  • 大小 58.84Gb
  • 格式 mkv
  • 编码 H.265
  • 媒介 Encode
  • 影片时长 30分钟
  • 语言 简体中文

夜色中的地球S01~S02 4K全集下载

释放双眼,带上耳机,听听看~!

大小:58.84 GB   类型: Doc 2160p   L   媒介: Encode   编码: H.265   音频编码: AC3/DD   分辨率: 2160p/4K

  • ◎译  名 夜色中的地球
    ◎片  名 Earth at Night in Color
    ◎年  代 2020
    ◎产  地 美国
    ◎类  别 纪录片
    ◎语  言 英语
    ◎上映日期 2020-12-04(美国)
    ◎IMDb链接  https://www.imdb.com/title/tt13008036
    ◎豆瓣评分 0/10 from 0 users
    ◎豆瓣链接 https://movie.douban.com/subject/35225593/
    ◎集  数 6
    ◎主  演 汤姆·希德勒斯顿 Tom Hiddleston
  • ◎标  签 纪录片 | 自然 | 2020 | 英国 | 美国 | 抖森 | AppleTV
  • ◎简  介  
  •   该剧在六大洲拍摄,去到北极圈、非洲草原等,用尖端摄像技术揭示前所未见的黑暗降临后的动物活动,“如同光天化日下一样清晰”。

General
Unique ID                      : 199910494105356264023372394338794061782 (0x96655C557D7705CF092D9151C32BBFD6)
Complete name                  : H:\FRDS\夜色中的地球.Earth.at.Night.in.Color.WEB-DL.2160p.HDR.H265.DDP.5.1£cXcY@FRDS\Season 1\Earth.at.Night.in.Color.2020.S01E01.WEB-DL.2160p.HDR.DDP5.1.H265.mkv
Format                         : Matroska
Format version                 : Version 4
File size                      : 5.02 GiB
Duration                       : 29 min 2 s
Overall bit rate               : 24.7 Mb/s
Encoded date                   : UTC 2021-05-06 06:26:33
Writing application            : mkvmerge v56.1.0 (‘My Friend’) 64-bit
Writing library                : libebml v1.4.2 + libmatroska v1.6.4

Video
ID                             : 1
Format                         : HEVC
Format/Info                    : High Efficiency Video Coding
Format profile                 : Main 10@L5@High
HDR format                     : SMPTE ST 2086, HDR10 compatible
Codec ID                       : V_MPEGH/ISO/HEVC
Duration                       : 29 min 2 s
Bit rate                       : 23.9 Mb/s
Width                          : 3 840 pixels
Height                         : 2 160 pixels
Display aspect ratio           : 16:9
Frame rate mode                : Constant
Frame rate                     : 23.976 (24000/1001) FPS
Color space                    : YUV
Chroma subsampling             : 4:2:0 (Type 2)
Bit depth                      : 10 bits
Bits/(Pixel*Frame)             : 0.120
Stream size                    : 4.85 GiB (97%)
Language                       : English
Default                        : Yes
Forced                         : No
Color range                    : Limited
Color primaries                : BT.2020
Transfer characteristics       : PQ
Matrix coefficients            : BT.2020 non-constant
Mastering display color primar : Display P3
Mastering display luminance    : min: 0.0050 cd/m2, max: 1000 cd/m2
Maximum Content Light Level    : 2731 cd/m2
Maximum Frame-Average Light Le : 90 cd/m2

Audio
ID                             : 2
Format                         : E-AC-3 JOC
Format/Info                    : Enhanced AC-3 with Joint Object Coding
Commercial name                : Dolby Digital Plus with Dolby Atmos
Codec ID                       : A_EAC3
Duration                       : 29 min 2 s
Bit rate mode                  : Constant
Bit rate                       : 768 kb/s
Channel(s)                     : 6 channels
Channel layout                 : L R C LFE Ls Rs
Sampling rate                  : 48.0 kHz
Frame rate                     : 31.250 FPS (1536 SPF)
Compression mode               : Lossy
Stream size                    : 160 MiB (3%)
Language                       : English
Service kind                   : Complete Main
Default                        : Yes
Forced                         : No
Complexity index               : 16
Number of dynamic objects      : 15
Bed channel count              : 1 channel
Bed channel configuration      : LFE

Text #1
ID                             : 3
Format                         : PGS
Muxing mode                    : zlib
Codec ID                       : S_HDMV/PGS
Codec ID/Info                  : Picture based subtitle format used on BDs/HD-DVDs
Duration                       : 27 min 56 s
Bit rate                       : 53.9 kb/s
Count of elements              : 758
Stream size                    : 10.8 MiB (0%)
Title                          : SDR
Language                       : Chinese
Default                        : Yes
Forced                         : Yes

Text #2
ID                             : 4
Format                         : PGS
Muxing mode                    : zlib
Codec ID                       : S_HDMV/PGS
Codec ID/Info                  : Picture based subtitle format used on BDs/HD-DVDs
Duration                       : 27 min 56 s
Bit rate                       : 54.0 kb/s
Count of elements              : 758
Stream size                    : 10.8 MiB (0%)
Title                          : HDR
Language                       : Chinese
Default                        : No
Forced                         : No

文章链接:https://www.bt4k.cn/38073.html
文章标题:夜色中的地球S01~S02 4K全集下载
文章版权:本站绝大部分文章均为原创,如您需要转载至别的平台,请注明出处;同时本站还有一部分软件资源和4K视频测试素材,这部分资源均是通过互联网收集而来,通过网盘形式分享给广大网友。下载所需的积分均可通过日常签到以及相关任务获取!如您认为本站有内容涉及侵犯您的版权,请及时联系我们,我们确认后会第一时间删除。

下载权限

查看
  • 免费下载
    评论并刷新后下载
    登录后下载

  • {{attr.name}}:
您当前的等级为
登录后免费下载登录 小黑屋反思中,不准下载! 评论后刷新页面下载评论 支付以后下载 请先登录 支付积分以后下载立即支付 支付以后下载立即支付 您当前的用户组不允许下载升级会员
您有每天免费下载所有资源次的特权,今日剩余 已取得下载权限

为TA充电
人已赞赏
4K视频

地球脉动第二季4K全集下载

2021-6-8 10:20:24

4K视频

杜比视界4K演示碟2018

2021-6-6 1:41:48

0 条回复 A文章作者 M管理员
    暂无讨论,说说你的看法吧
个人中心
今日签到
有新私信 私信列表
搜索