地球脉动第二季4K全集下载

  • 大小 110.07Gb
  • 格式 BDMV
  • 编码 H.265
  • 媒介 UHD Blu-ray
  • 影片时长 298分钟
  • 语言 简体中文

地球脉动第二季4K全集下载

释放双眼,带上耳机,听听看~!

大小:110.07 GB   类型: 纪录片   媒介: UHD Blu-ray/DIY   编码: H.265(HEVC)   音频编码: DTS-HD MA   分辨率: 4K

  • ◎译  名 地球脉动 第二季/行星地球 第二季/我们的地球 第二季/地球无限 第二季
    ◎片  名 Planet Earth Season 2
    ◎年  代 2016
    ◎产  地 英国
    ◎类  别 纪录片
    ◎语  言 英语
    ◎上映日期 2016-11-06(英国)
    ◎IMDb评分  9.6/10 from 42,156 users
    ◎IMDb链接  http://www.imdb.com/title/tt5491994/
    ◎豆瓣评分 9.9/10 from 29,719 users
    ◎豆瓣链接 https://movie.douban.com/subject/26733371/
    ◎集  数 6
    ◎片  长 50分钟
    ◎主  演 戴维·阿滕伯勒 David Attenborough
  • ◎简  介
  •   据外媒The Atlantic 报道,《地球脉动2》将在今年晚些时候正式播出,并继续由英国生物学家David Attenborough担任旁白。
      “在2006年播出时,首次全程采用高清摄像机拍摄的《地球脉动》是当时BBC摄制成本最高的一部纪录片。《地球脉动2》将运用同样的前瞻性思维,在过去三年中我们采用超高清4K摄影机拍摄,同时使用了无人机和远程控制拍摄技术。 《地球脉动2》播出后极有可能成为4K电视机的助推器。”
      据悉,《地球脉动》第二季将分为6个系列片。

DISC INFO:

Disc Title:     PLANET_EARTH_II_DISC_1
Disc Size:      59,162,207,238 bytes
Protection:     AACS2
BD-Java:        Yes
Extras:         Ultra HD
BDInfo:         0.5.8.7 (compatible layout created by DVDFab 10.0.8.1)

PLAYLIST REPORT:

Name:                   00163.MPLS  
Length:                 2:36:48.690 (h:m:s.ms)
Size:                   58,751,251,584 bytes
Total Bitrate:          49.95 Mbps

VIDEO:

Codec                   Bitrate             Desc‍ription     
—–                   ——-             ———–     
MPEG-H HEVC Video       42952 kbps          2160p / 23.976 fps / 16:9 / Main 10 Profile 5.1 High / 4:2:0 / 10 bits / HDR / BT.2020 / 

AUDIO:

Codec                           Language        Bitrate         Desc‍ription     
—–                           ——–        ——-         ———–     
DTS-HD Master Audio             English         2277 kbps       5.1 / 48 kHz / 2277 kbps / 16-bit (DTS Core: 5.1 / 48 kHz / 1509 kbps / 16-bit)
Dolby TrueHD Audio              Chinese         1673 kbps       2.0 / 96 kHz / 1673 kbps / 16-bit (AC3 Core: 2.0 / 48 kHz / 384 kbps / Dolby Surround)

SUBTITLES:

Codec                           Language        Bitrate         Desc‍ription     
—–                           ——–        ——-         ———–     
Presentation Graphics           English         25.261 kbps                     
Presentation Graphics           Chinese         21.934 kbps                     
Presentation Graphics           Chinese         22.335 kbps                     

FILES:

Name            Time In         Length          Size            Total Bitrate   
—-            ——-         ——          —-            ————-   
00058.M2TS      0:00:00.000     0:53:04.097     19,933,839,744  50,083 kbps     
00059.M2TS      0:53:04.097     0:51:32.380     19,280,167,680  49,877 kbps     
00060.M2TS      1:44:36.478     0:52:12.212     19,537,244,160  49,900 kbps   

引用

DISC INFO:

Disc Title:     PLANET_EARTH_II_DISC_II
Disc Size:      59,026,025,675 bytes
Protection:     AACS2
BD-Java:        Yes
Extras:         Ultra HD
BDInfo:         0.5.8.7 (compatible layout created by DVDFab 10.0.8.1)

PLAYLIST REPORT:

Name:                   00163.MPLS  
Length:                 2:34:01.231 (h:m:s.ms)
Size:                   57,571,793,088 bytes
Total Bitrate:          49.84 Mbps

VIDEO:

Codec                   Bitrate             Desc‍ription     
—–                   ——-             ———–     
MPEG-H HEVC Video       42092 kbps          2160p / 23.976 fps / 16:9 / Main 10 Profile 5.1 High / 4:2:0 / 10 bits / HDR / BT.2020 / 

AUDIO:

Codec                           Language        Bitrate         Desc‍ription     
—–                           ——–        ——-         ———–     
DTS-HD Master Audio             English         2294 kbps       5.1 / 48 kHz / 2294 kbps / 16-bit (DTS Core: 5.1 / 48 kHz / 1509 kbps / 16-bit)
Dolby TrueHD Audio              Chinese         1670 kbps       2.0 / 96 kHz / 1670 kbps / 16-bit (AC3 Core: 2.0 / 48 kHz / 384 kbps / Dolby Surround)

SUBTITLES:

Codec                           Language        Bitrate         Desc‍ription     
—–                           ——–        ——-         ———–     
Presentation Graphics           English         26.576 kbps                     
Presentation Graphics           Chinese         21.242 kbps                     
Presentation Graphics           Chinese         21.67 kbps                      

FILES:

Name            Time In         Length          Size            Total Bitrate   
—-            ——-         ——          —-            ————-   
00058.M2TS      0:00:00.000     0:51:10.275     19,140,946,560  49,874 kbps     
00059.M2TS      0:51:10.275     0:51:21.244     19,276,410,432  50,048 kbps     
00060.M2TS      1:42:31.520     0:51:29.711     19,154,436,096  49,595 kbps  

文章链接:https://www.bt4k.cn/38071.html
文章标题:地球脉动第二季4K全集下载
文章版权:本站绝大部分文章均为原创,如您需要转载至别的平台,请注明出处;同时本站还有一部分软件资源和4K视频测试素材,这部分资源均是通过互联网收集而来,通过网盘形式分享给广大网友。下载所需的积分均可通过日常签到以及相关任务获取!如您认为本站有内容涉及侵犯您的版权,请及时联系我们,我们确认后会第一时间删除。

下载权限

查看
  • 免费下载
    评论并刷新后下载
    登录后下载

  • {{attr.name}}:
您当前的等级为
登录后免费下载登录 小黑屋反思中,不准下载! 评论后刷新页面下载评论 支付以后下载 请先登录 支付积分以后下载立即支付 支付以后下载立即支付 您当前的用户组不允许下载升级会员
您有每天免费下载所有资源次的特权,今日剩余 已取得下载权限

为TA充电
人已赞赏
4K视频

完美星球4K全集

2021-6-8 10:10:45

4K视频

夜色中的地球S01~S02 4K全集下载

2021-6-8 10:29:37

0 条回复 A文章作者 M管理员
    暂无讨论,说说你的看法吧
个人中心
今日签到
有新私信 私信列表
搜索