完美星球4K全集

  • 大小 133.89Gb
  • 格式 BDMV
  • 编码 HEVC
  • 媒介 UHD Blu-ray
  • 语言 简体中文
  • 影片时长 245分钟

完美星球4K全集

释放双眼,带上耳机,听听看~!

大小:133.89 GB   类型: Doc UHD Blu-ray   媒介: UHD Blu-ray   编码: HEVC   音频编码: TrueHD Atmos   分辨率: 2160p

  • ◎译  名 完美星球
    ◎片  名 A Perfect Planet
    ◎年  代 2021
    ◎产  地 英国
    ◎类  别 纪录片
    ◎语  言 英语
    ◎上映日期 2021-01-03(英国) / 2021-01-04(中国大陆)
    ◎IMDb评分  9.2/10 from 616 users
    ◎IMDb链接  https://www.imdb.com/title/tt10219322/
    ◎豆瓣评分 9.8/10 from 3230 users
    ◎豆瓣链接 https://movie.douban.com/subject/33387354/
    ◎集  数 5
    ◎片  长 60分钟
    ◎主  演 大卫·爱登堡 David Attenborough
  • ◎标  签 纪录片 | BBC | 自然 | 英国 | 大卫·爱登堡 | 大卫爱登堡 | 2020 | Documentary
  • ◎简  介
  •   《完美星球》是一部与地球科学巧妙结合的蓝筹自然历史纪录片,它揭示了我们所生存的这颗星球的运转规则。 这部纪录片共分为五集,展示了自然力量如何推动、塑造和维持地球生物的多样性,前四集分别探索了火山、 阳光、天气和海洋的力量,最后一集则着眼于新兴的自然力量:人类,揭示了人类对地球造成的巨大影响以及如何恢复地球完美的生态平衡。
      从印度雨季潮湿的土地到夏威夷火山炽热的山坡;从巴哈马的潮汐岛屿到冰天雪地的埃尔斯米尔岛;从冬夜郊外嚎叫的北极狼群到春季结冰的身体慢慢融化的木蛙;从加拉帕戈斯群岛以吸食海鸟鲜血解渴的吸血地雀,到每年成群结队聚集在火山湖中繁殖的非洲小红鹳,《完美星球》将带领我们踏上一场无与伦比的视觉之旅。
      这部纪录片将改变我们看待自然家园的方式。我们将一次又一次地见证地球所具有的强大自然力量是如何孕育生命的。

DISC INFO:

Disc Title:     Perfect Planet – Disc 1
Disc Label:     PERFECT_PLANET_DISC_1
Disc Size:      81,437,612,450 bytes
Protection:     AACS2
Extras:         Ultra HD
BDInfo:         0.7.5.5

PLAYLIST REPORT:

Name:                   00022.MPLS
Length:                 2:35:39.663 (h:m:s.ms)
Size:                   80,866,818,048 bytes
Total Bitrate:          69.27 Mbps

VIDEO:

Codec                   Bitrate             Description    
—–                   ——-             ———–    
MPEG-H HEVC Video       57142 kbps          2160p / 23.976 fps / 16:9 / Main 10 @ Level 5.1 @ High / 10 bits / HDR10 / BT.2020

AUDIO:

Codec                           Language        Bitrate         Description    
—–                           ——–        ——-         ———–    
DTS-HD Master Audio             English         2139 kbps       5.1 / 48 kHz /  2139 kbps / 16-bit (DTS Core: 5.1 / 48 kHz /  1509 kbps / 16-bit)
Dolby TrueHD/Atmos Audio        English         5248 kbps       7.1 / 48 kHz /  4608 kbps / 24-bit (AC3 Embedded: 5.1-EX / 48 kHz /   640 kbps / DN -31dB)
Dolby Digital Audio             Chinese         320 kbps        2.0 / 48 kHz /   320 kbps / DN -31dB

SUBTITLES:

Codec                           Language        Bitrate         Description    
—–                           ——–        ——-         ———–    
Presentation Graphics           English         31.234 kbps                    
Presentation Graphics           Chinese         25.326 kbps                    
Presentation Graphics           Chinese         24.124 kbps                    

FILES:

Name            Time In         Length          Size            Total Bitrate  
—-            ——-         ——          —-            ————-  
00287.M2TS      0:00:00.000     0:53:39.883     27,896,641,536  69,311          
00285.M2TS      0:53:39.883     0:51:12.110     26,479,220,736  68,954          
00286.M2TS      1:44:51.994     0:50:47.669     26,490,955,776  69,538          

DISC INFO:

Disc Title:     Perfect Planet – Disc 2
Disc Label:     PERFECT_PLANET_DISC_2
Disc Size:      62,330,907,154 bytes
Protection:     AACS2
Extras:         Ultra HD
BDInfo:         0.7.5.5

PLAYLIST REPORT:

Name:                   00022.MPLS
Length:                 1:50:50.060 (h:m:s.ms)
Size:                   50,686,679,040 bytes
Total Bitrate:          60.98 Mbps

VIDEO:

Codec                   Bitrate             Description    
—–                   ——-             ———–    
MPEG-H HEVC Video       49392 kbps          2160p / 23.976 fps / 16:9 / Main 10 @ Level 5.1 @ High / 10 bits / HDR10 / BT.2020

AUDIO:

Codec                           Language        Bitrate         Description    
—–                           ——–        ——-         ———–    
DTS-HD Master Audio             English         2059 kbps       5.1 / 48 kHz /  2059 kbps / 16-bit (DTS Core: 5.1 / 48 kHz /  1509 kbps / 16-bit)
Dolby TrueHD/Atmos Audio        English         5092 kbps       7.1 / 48 kHz /  4452 kbps / 24-bit (AC3 Embedded: 5.1-EX / 48 kHz /   640 kbps / DN -31dB)
Dolby Digital Audio             Chinese         320 kbps        2.0 / 48 kHz /   320 kbps / DN -31dB

SUBTITLES:

Codec                           Language        Bitrate         Description    
—–                           ——–        ——-         ———–    
Presentation Graphics           English         44.235 kbps                    
Presentation Graphics           Chinese         33.475 kbps                    
Presentation Graphics           Chinese         31.746 kbps                    

FILES:

Name            Time In         Length          Size            Total Bitrate  
—-            ——-         ——          —-            ————-  
00287.M2TS      0:00:00.000     0:50:28.483     23,261,153,280  61,446          
00285.M2TS      0:50:28.483     1:00:21.576     27,425,525,760  60,583  

文章链接:https://www.bt4k.cn/38068.html
文章标题:完美星球4K全集
文章版权:本站绝大部分文章均为原创,如您需要转载至别的平台,请注明出处;同时本站还有一部分软件资源和4K视频测试素材,这部分资源均是通过互联网收集而来,通过网盘形式分享给广大网友。下载所需的积分均可通过日常签到以及相关任务获取!如您认为本站有内容涉及侵犯您的版权,请及时联系我们,我们确认后会第一时间删除。

下载权限

查看
  • 免费下载
    评论并刷新后下载
    登录后下载

  • {{attr.name}}:
您当前的等级为
登录后免费下载登录 小黑屋反思中,不准下载! 评论后刷新页面下载评论 支付以后下载 请先登录 支付积分以后下载立即支付 支付以后下载立即支付 您当前的用户组不允许下载升级会员
您有每天免费下载所有资源次的特权,今日剩余 已取得下载权限

为TA充电
人已赞赏
4K视频

地球改变之年

2021-6-8 9:42:31

4K视频

地球脉动第二季4K全集下载

2021-6-8 10:20:24

0 条回复 A文章作者 M管理员
    暂无讨论,说说你的看法吧
个人中心
今日签到
有新私信 私信列表
搜索