地球改变之年

  • 大小 8.44Gb
  • 格式 mp4
  • 编码 H.265
  • 媒介 WEB-DL
  • 语言 英语

地球改变之年

释放双眼,带上耳机,听听看~!

大小:8.44 GB   类型: 纪录片   媒介: WEB-DL   编码: H.265(HEVC)   音频编码: DD/AC3   分辨率: 4K

  • ◎译  名 地球改变之年
    ◎片  名 The Year Earth Changed
    ◎年  代 2021
    ◎产  地 美国
    ◎类  别 纪录片
    ◎语  言 英语
    ◎上映日期 2021-04-16(美国)
    ◎IMDb评分  0/10 from 0 users
    ◎IMDb链接  https://www.imdb.com/title/tt14372240/
    ◎豆瓣评分 /10 from 0 users
    ◎豆瓣链接 https://movie.douban.com/subject/35417202/
    ◎集  数 6
    ◎片  长 48分钟
    ◎导  演 汤姆·比尔德 Tom Beard
    ◎主  演 大卫·爱登堡 David Attenborough
  • ◎标  签 纪录片 | 2021 | Documentary | AppleTV+ | US-TV
  • ◎简  介
  •   大卫·爱登堡担任旁白的Apple TV+纪录片《地球改变之年》(The Year Earth Changed,暂译)释出正式预告!该片由汤姆·比尔德执导,镜头将对准疫情下的人类与野生动物,以全新的视角来看待大自然。该片将于4月16日播出。

General
Format                                   : MPEG-4
Format profile                           : Base Media
Codec ID                                 : isom (isom)
File size                                : 8.44 GiB
Duration                                 : 48 min 20 s
Overall bit rate mode                    : Variable
Overall bit rate                         : 25.0 Mb/s

Video
ID                                       : 1
Format                                   : HEVC
Format/Info                              : High Efficiency Video Coding
Format profile                           : Main 10@L5@High
HDR format                               : Dolby Vision, Version 1.0, dvhe.05.06, BL+RPU
Codec ID                                 : dvhe
Codec ID/Info                            : High Efficiency Video Coding with Dolby Vision
Duration                                 : 48 min 20 s
Bit rate                                 : 24.2 Mb/s
Width                                    : 3 840 pixels
Height                                   : 2 160 pixels
Display aspect ratio                     : 16:9
Frame rate mode                          : Constant
Frame rate                               : 23.976 (24000/1001) FPS
Color space                              : YUV
Chroma subsampling                       : 4:2:0
Bit depth                                : 10 bits
Bits/(Pixel*Frame)                       : 0.122
Stream size                              : 8.18 GiB (97%)
Default                                  : Yes
Alternate group                          : 1
Codec configuration box                  : hvcC+dvcC

Audio
ID                                       : 2
Format                                   : E-AC-3 JOC
Format/Info                              : Enhanced AC-3 with Joint Object Coding
Commercial name                          : Dolby Digital Plus with Dolby Atmos
Codec ID                                 : ec-3
Duration                                 : 48 min 20 s
Bit rate mode                            : Constant
Bit rate                                 : 768 kb/s
Maximum bit rate                         : 811 kb/s
Channel(s)                               : 6 channels
Channel layout                           : L R C LFE Ls Rs
Sampling rate                            : 48.0 kHz
Frame rate                               : 31.250 FPS (1536 SPF)
Compression mode                         : Lossy
Stream size                              : 266 MiB (3%)
Language                                 : English
Service kind                             : Complete Main
Default                                  : Yes
Alternate group                          : 2
Complexity index                         : Not present / 16
Number of dynamic objects                : 15
Bed channel count                        : 1 channel
Bed channel configuration                : LFE

Text #1
ID                                       : 3
Format                                   : Timed Text
Codec ID                                 : tx3g
Duration                                 : 44 min 17 s
Bit rate mode                            : Variable
Bit rate                                 : 1 b/s
Stream size                              : 452 Bytes (0%)
Title                                    : English (Forced)
Language                                 : English
Forced                                   : No

Text #2
ID                                       : 4
Format                                   : Timed Text
Codec ID                                 : tx3g
Duration                                 : 48 min 13 s
Bit rate mode                            : Variable
Bit rate                                 : 86 b/s
Stream size                              : 30.3 KiB (0%)
Title                                    : Dansk
Language                                 : Danish
Forced                                   : No

Text #3
ID                                       : 5
Format                                   : Timed Text
Codec ID                                 : tx3g
Duration                                 : 48 min 13 s
Bit rate mode                            : Variable
Bit rate                                 : 91 b/s
Stream size                              : 32.1 KiB (0%)
Title                                    : Français
Language                                 : French
Forced                                   : No

Text #4
ID                                       : 6
Format                                   : Timed Text
Codec ID                                 : tx3g
Duration                                 : 48 min 13 s
Bit rate mode                            : Variable
Bit rate                                 : 90 b/s
Stream size                              : 31.8 KiB (0%)
Title                                    : German
Language                                 : German
Forced                                   : No

Text #5
ID                                       : 7
Format                                   : Timed Text
Codec ID                                 : tx3g
Duration                                 : 48 min 13 s
Bit rate mode                            : Variable
Bit rate                                 : 95 b/s
Stream size                              : 33.6 KiB (0%)
Title                                    : Português
Language                                 : Portuguese
Forced                                   : No

Text #6
ID                                       : 8
Format                                   : Timed Text
Codec ID                                 : tx3g
Duration                                 : 47 min 6 s
Bit rate mode                            : Variable
Bit rate                                 : 93 b/s
Stream size                              : 32.0 KiB (0%)
Title                                    : English (SDH)
Language                                 : English
Forced                                   : No

Text #7
ID                                       : 9
Format                                   : Timed Text
Codec ID                                 : tx3g
Duration                                 : 48 min 13 s
Bit rate mode                            : Variable
Bit rate                                 : 91 b/s
Stream size                              : 32.2 KiB (0%)
Title                                    : Suomi
Language                                 : Finnish
Forced                                   : No

Text #8
ID                                       : 10
Format                                   : Timed Text
Codec ID                                 : tx3g
Duration                                 : 48 min 13 s
Bit rate mode                            : Variable
Bit rate                                 : 91 b/s
Stream size                              : 32.1 KiB (0%)
Title                                    : Français (Canadien)
Language                                 : French
Forced                                   : No

Text #9
ID                                       : 11
Format                                   : Timed Text
Codec ID                                 : tx3g
Duration                                 : 48 min 13 s
Bit rate mode                            : Variable
Bit rate                                 : 87 b/s
Stream size                              : 30.6 KiB (0%)
Title                                    : Norsk
Language                                 : Norwegian
Forced                                   : No

Text #10
ID                                       : 12
Format                                   : Timed Text
Codec ID                                 : tx3g
Duration                                 : 48 min 13 s
Bit rate mode                            : Variable
Bit rate                                 : 86 b/s
Stream size                              : 30.3 KiB (0%)
Title                                    : Svenska
Language                                 : Swedish
Forced                                   : No

Text #11
ID                                       : 13
Format                                   : Timed Text
Codec ID                                 : tx3g
Duration                                 : 48 min 13 s
Bit rate mode                            : Variable
Bit rate                                 : 94 b/s
Stream size                              : 33.4 KiB (0%)
Title                                    : Italiano
Language                                 : Italian
Forced                                   : No

Text #12
ID                                       : 14
Format                                   : Timed Text
Codec ID                                 : tx3g
Duration                                 : 48 min 13 s
Bit rate mode                            : Variable
Bit rate                                 : 93 b/s
Stream size                              : 32.9 KiB (0%)
Title                                    : Español
Language                                 : Spanish
Forced                                   : No

Text #13
ID                                       : 15
Format                                   : Timed Text
Codec ID                                 : tx3g
Duration                                 : 48 min 13 s
Bit rate mode                            : Variable
Bit rate                                 : 65 b/s
Stream size                              : 22.9 KiB (0%)
Title                                    : Nederlands
Language                                 : Dutch
Forced                                   : No

Text #14
ID                                       : 16
Format                                   : Timed Text
Codec ID                                 : tx3g
Duration                                 : 48 min 13 s
Bit rate mode                            : Variable
Bit rate                                 : 91 b/s
Stream size                              : 32.2 KiB (0%)
Title                                    : Español (Latinoamericano)
Language                                 : Spanish
Forced                                   : No

Text #15
ID                                       : 17
Format                                   : Timed Text
Codec ID                                 : tx3g
Duration                                 : 48 min 13 s
Bit rate mode                            : Variable
Bit rate                                 : 91 b/s
Stream size                              : 32.1 KiB (0%)
Title                                    : Português (Brasil)
Language                                 : Portuguese
Forced                                   : No

文章链接:https://www.bt4k.cn/38066.html
文章标题:地球改变之年
文章版权:本站绝大部分文章均为原创,如您需要转载至别的平台,请注明出处;同时本站还有一部分软件资源和4K视频测试素材,这部分资源均是通过互联网收集而来,通过网盘形式分享给广大网友。下载所需的积分均可通过日常签到以及相关任务获取!如您认为本站有内容涉及侵犯您的版权,请及时联系我们,我们确认后会第一时间删除。

下载权限

查看
  • 免费下载
    评论并刷新后下载
    登录后下载

  • {{attr.name}}:
您当前的等级为
登录后免费下载登录 小黑屋反思中,不准下载! 评论后刷新页面下载评论 支付以后下载 请先登录 支付积分以后下载立即支付 支付以后下载立即支付 您当前的用户组不允许下载升级会员
您有每天免费下载所有资源次的特权,今日剩余 已取得下载权限

为TA充电
人已赞赏
4K视频

蓝色星球2 4K全集下载

2021-6-8 9:24:36

4K视频

完美星球4K全集

2021-6-8 10:10:45

0 条回复 A文章作者 M管理员
    暂无讨论,说说你的看法吧
个人中心
今日签到
有新私信 私信列表
搜索