DTS:X 4K 2019年演示碟

  • 大小 35.27Gb
  • 格式 iso

DTS:X 4K 2019年演示碟

释放双眼,带上耳机,听听看~!

大小:35.27 GB   类型: 电影   媒介: Blu-ray(原盘)   编码: H.265(HEVC)   音频编码: DTS-HD MA   分辨率: 4K

2019年的DTS演示碟终于与大家见面了。与去年一样,这张碟仅提供UHD 4K版本,还没升级器材的烧友们该加油了。本次的演示内容主要是老片新制,老片重新制作和混音,升级为4K的画面和DTS:X的音轨,效果焕然一新。

DISC INFO:

Disc Title:     DTS_CES_DEMO_2019
Disc Size:      37,870,857,141 bytes
Protection:     AACS
BD-Java:        Yes
BDInfo:         0.7.1

PLAYLIST REPORT:

Name:                   00183.MPLS
Length:                 0:51:59.157 (h:m:s.ms)
Size:                   25,728,534,528 bytes
Total Bitrate:          65.99 Mbps

VIDEO:

Codec                   Bitrate             Description    
—–                   ——-             ———–    
HEVC Video              54687 kbps          2160p / 23.976 fps / 16:9

AUDIO:

Codec                           Language        Bitrate         Description    
—–                           ——–        ——-         ———–    
DTS-HD Master Audio             English         6410 kbps       7.1 / 48 kHz / 6410 kbps / 24-bit (DTS Core: 5.1 / 48 kHz / 1509 kbps / 24-bit)
* DTS-HD Master Audio           English         1659 kbps       2.0 / 48 kHz / 1659 kbps / 24-bit (DTS Core: 2.0 / 48 kHz / 1509 kbps / 24-bit)

FILES:

Name            Time In         Length          Size            Total Bitrate  
—-            ——-         ——          —-            ————-  
00311.M2TS      0:00:00.000     0:01:01.060     348,254,208     45,627          
00280.M2TS      0:01:01.060     0:03:03.182     1,445,314,560   63,120          
00281.M2TS      0:04:04.243     0:02:04.415     1,032,597,504   66,396          
00304.M2TS      0:06:08.659     0:00:48.965     417,546,240     68,219          
00282.M2TS      0:06:57.625     0:03:21.367     1,761,736,704   69,991          
00283.M2TS      0:10:18.993     0:02:55.884     1,477,294,080   67,194          
00308.M2TS      0:13:14.877     0:01:25.001     749,021,184     70,495          
00284.M2TS      0:14:39.878     0:03:06.769     1,549,056,000   66,351          
00285.M2TS      0:17:46.648     0:03:10.773     1,634,709,504   68,551          
00312.M2TS      0:20:57.422     0:00:34.033     206,567,424     48,556          
00286.M2TS      0:21:31.456     0:00:56.014     434,042,880     61,990          
00287.M2TS      0:22:27.470     0:02:37.407     1,342,998,528   68,256          
00305.M2TS      0:25:04.878     0:01:44.521     859,496,448     65,786          
00288.M2TS      0:26:49.399     0:01:54.906     995,696,640     69,322          
00289.M2TS      0:28:44.305     0:03:23.786     1,755,912,192   68,931          
00290.M2TS      0:32:08.092     0:01:53.404     969,412,608     68,386          
00307.M2TS      0:34:01.497     0:01:25.043     718,264,320     67,567          
00291.M2TS      0:35:26.540     0:01:46.481     888,600,576     66,761          
00292.M2TS      0:37:13.022     0:02:38.992     1,157,996,544   58,267          
00313.M2TS      0:39:52.014     0:00:19.018     63,504,384      26,712          
00293.M2TS      0:40:11.033     0:01:49.484     903,837,696     66,043          
00294.M2TS      0:42:00.517     0:03:08.813     1,637,990,400   69,401          
00309.M2TS      0:45:09.331     0:01:29.005     760,467,456     68,352          
00296.M2TS      0:46:38.336     0:01:49.818     911,751,168     66,419          
00310.M2TS      0:48:28.154     0:01:04.063     439,689,216     54,906          
00297.M2TS      0:49:32.218     0:02:26.938     1,266,776,064   68,969
Contents:
Jurassic World: Fallen Kingdom #1 (3:03) DTS-HD MA 7.1 / DTS:X / DTS Headphone:X
Despicable Me 3 #1 (2:04) DTS-HD MA 7.1 / DTS:X / DTS Headphone:X
Jurassic Park (3:21) DTS-HD MA 7.1 / DTS:X / DTS Headphone:X
The Incredible Hulk #1 (2:56) DTS-HD MA 7.1 / DTS:X / DTS Headphone:X
Volumes (3:07) DTS-HD MA 7.1 / DTS:X / DTS Headphone:X
The Lost World: Jurassic Park (3:11) DTS-HD MA 7.1 / DTS:X / DTS Headphone:X
American Made #1 (0:56) DTS-HD MA 7.1 / DTS:X / DTS Headphone:X
Jurassic Park III (2:37) DTS-HD MA 7.1 / DTS:X / DTS Headphone:X
Pitch Perfect 3 (1:55) DTS-HD MA 7.1 / DTS:X / DTS Headphone:X
Transient (3:24) DTS-HD MA 7.1 / DTS:X / DTS Headphone:X
Jurassic World (1:53) DTS-HD MA 7.1 / DTS:X / DTS Headphone:X
Straight Outa Compton (1:46) DTS-HD MA 7.1 / DTS:X / DTS Headphone:X
Jurassic World: Fallen Kingdom #2 (2:39) DTS-HD MA 7.1 / DTS:X / DTS Headphone:X
American Made #2 (1:49) DTS-HD MA 7.1 / DTS:X / DTS Headphone:X
Nebula (3:09) DTS-HD MA 7.1 / DTS:X / DTS Headphone:X
Despicable Me 3 #2 (1:50) DTS-HD MA 7.1 / DTS:X / DTS Headphone:X
The Incredible Hulk #1 (2:56) DTS-HD MA 7.1 / DTS:X / DTS Headphone:X

Extras:
DTS:X All Around Us (0:49) DTS-HD MA 7.1 / DTS:X
DTS:X Features (1:45) DTS-HD MA 7.1 / DTS:X
DTS:X Object Emulator 7.1.4 (1:32) DTS-HD MA 7.1 / DTS:X
DTS Virtual:X For TV (1:25) DTS-HD MA 2.0
DTS Virtual:X For Sound Bar (1:25) DTS-HD MA 2.0
DTS Virtual:X For AV Receiver (1:29) DTS-HD MA 2.0
DTS Play-Fi Sonic Freedom (1:04) DTS-HD MA 2.0
DTS:X Out Of The Box (60) (1:01) DTS-HD MA 7.1 / DTS:X
DTS:X Out Of The Box (30) (0:34) DTS-HD MA 7.1 / DTS:X
DTS:X Out Of The Box (15) (0:19) DTS-HD MA 7.1 / DTS:X
DTS:X Callout 7.1.4 (0:42) DTS-HD MA 7.1 / DTS:X
DTS:X Callout 5.1.4 (0:36) DTS-HD MA 7.1 / DTS:X
DTS Headphone:X Callout (0:42) DTS Headphone:X

文章链接:https://www.bt4k.cn/38048.html
文章标题:DTS:X 4K 2019年演示碟
文章版权:本站绝大部分文章均为原创,如您需要转载至别的平台,请注明出处;同时本站还有一部分软件资源和4K视频测试素材,这部分资源均是通过互联网收集而来,通过网盘形式分享给广大网友。下载所需的积分均可通过日常签到以及相关任务获取!如您认为本站有内容涉及侵犯您的版权,请及时联系我们,我们确认后会第一时间删除。

下载权限

查看
  • 免费下载
    评论并刷新后下载
    登录后下载

  • {{attr.name}}:
您当前的等级为
登录后免费下载登录 小黑屋反思中,不准下载! 评论后刷新页面下载评论 支付以后下载 请先登录 支付积分以后下载立即支付 支付以后下载立即支付 您当前的用户组不允许下载升级会员
您有每天免费下载所有资源次的特权,今日剩余 已取得下载权限

为TA充电
人已赞赏
4K视频

4K DTS演示碟 2020 VOL.24

2021-6-6 1:12:41

4K视频

杜比视界4K演示碟2018

2021-6-6 1:41:48

0 条回复 A文章作者 M管理员
    暂无讨论,说说你的看法吧
个人中心
今日签到
有新私信 私信列表
搜索