4K DTS演示碟 2020 VOL.24

  • 大小 28.95Gb
  • 格式 iso

4K DTS演示碟 2020 VOL.24

释放双眼,带上耳机,听听看~!

大小:28.96 GB   类型: Demo   媒介: UHD Blu-ray   编码: H.265   音频编码: DTS-HD   分辨率: 4K

2020年CES期间,DTS发布了新的演示光盘。“ Volume 24”是一种超高清蓝光,DTS上包括16个演示片段和2个测试视频,欢迎各位网友下载测试电视性能。

Disc Title:     DTS Listen
Disc Label:     DTS_DemoDisc_2020
Disc Size:      31,089,020,689 bytes
Protection:     AACS2
Extras:         Ultra HD, BD-Java
BDInfo:         0.7.5.5

********************
PLAYLIST: 00183.MPLS
********************

DISC INFO:

Disc Title:     DTS Listen
Disc Label:     DTS_DemoDisc_2020
Disc Size:      31,089,020,689 bytes
Protection:     AACS2
Extras:         Ultra HD, BD-Java
BDInfo:         0.7.5.5

PLAYLIST REPORT:

Name:                   00183.MPLS
Length:                 0:57:38.371 (h:m:s.ms)
Size:                   29,654,488,320 bytes
Total Bitrate:          68.60 Mbps

VIDEO:

Codec                   Bitrate             Description     
—–                   ——-             ———–     
MPEG-H HEVC Video       56298 kbps          2160p / 23.976 fps / 16:9 / Main 10 @ Level 5.1 @ High / 10 bits / HDR10 / BT.2020

AUDIO:

Codec                           Language        Bitrate         Description     
—–                           ——–        ——-         ———–     
DTS:X Master Audio              English         7207 kbps       7.1 / 48 kHz /  7207 kbps / 24-bit (DTS Core: 5.1 / 48 kHz /  1509 kbps / 24-bit)
* DTS-HD Master Audio           English         1746 kbps       2.0 / 48 kHz /  1746 kbps / 24-bit (DTS Core: 2.0 / 48 kHz /  1509 kbps / 24-bit)

FILES:

Name            Time In         Length          Size            Total Bitrate   
—-            ——-         ——          —-            ————-   
00311.M2TS      0:00:00.000     0:01:01.060     348,254,208     45,627          
00280.M2TS      0:01:01.060     0:02:46.457     1,471,924,224   70,741          
00281.M2TS      0:03:47.518     0:03:21.910     1,708,793,856   67,705          
00304.M2TS      0:07:09.428     0:00:48.965     417,546,240     68,219          
00282.M2TS      0:07:58.394     0:03:09.772     1,731,385,344   72,988          
00283.M2TS      0:11:08.167     0:02:19.097     1,241,063,424   71,378          
00308.M2TS      0:13:27.264     0:01:26.085     770,469,888     71,600          
00284.M2TS      0:14:53.350     0:02:36.781     1,387,474,944   70,798          
00285.M2TS      0:17:30.132     0:01:36.012     842,145,792     70,170          
00312.M2TS      0:19:06.144     0:00:34.033     206,567,424     48,556          
00286.M2TS      0:19:40.178     0:03:55.068     1,985,415,168   67,569          
00287.M2TS      0:23:35.246     0:02:09.045     1,126,434,816   69,832          
00305.M2TS      0:25:44.292     0:01:44.521     859,496,448     65,786          
00288.M2TS      0:27:28.813     0:03:23.202     1,790,601,216   70,495          
00289.M2TS      0:30:52.016     0:02:20.849     1,248,306,432   70,902          
00307.M2TS      0:33:12.865     0:01:29.088     794,167,296     71,315          
00290.M2TS      0:34:41.954     0:02:43.246     1,420,480,512   69,612          
00291.M2TS      0:37:25.200     0:01:58.159     1,056,110,592   71,504          
00313.M2TS      0:39:23.360     0:00:19.018     63,504,384      26,712          
00292.M2TS      0:39:42.379     0:02:57.719     1,588,193,280   71,492          
00293.M2TS      0:42:40.098     0:03:45.308     1,897,211,904   67,364          
00309.M2TS      0:46:25.407     0:01:30.089     800,083,968     71,048          
00294.M2TS      0:47:55.497     0:01:04.939     550,877,184     67,863          
00317.M2TS      0:49:00.437     0:02:06.751     1,045,659,648   65,997          
00310.M2TS      0:51:07.188     0:01:05.023     449,298,432     55,278          
00296.M2TS      0:52:12.211     0:02:17.053     1,193,545,728   69,669          
00297.M2TS      0:54:29.265     0:03:09.105     1,659,475,968   70,203    

文章链接:https://www.bt4k.cn/38046.html
文章标题:4K DTS演示碟 2020 VOL.24
文章版权:本站绝大部分文章均为原创,如您需要转载至别的平台,请注明出处;同时本站还有一部分软件资源和4K视频测试素材,这部分资源均是通过互联网收集而来,通过网盘形式分享给广大网友。下载所需的积分均可通过日常签到以及相关任务获取!如您认为本站有内容涉及侵犯您的版权,请及时联系我们,我们确认后会第一时间删除。

下载权限

查看
  • 免费下载
    评论并刷新后下载
    登录后下载

  • {{attr.name}}:
您当前的等级为
登录后免费下载登录 小黑屋反思中,不准下载! 评论后刷新页面下载评论 支付以后下载 请先登录 支付积分以后下载立即支付 支付以后下载立即支付 您当前的用户组不允许下载升级会员
您有每天免费下载所有资源次的特权,今日剩余 已取得下载权限

为TA充电
人已赞赏
4K视频

央视首部4K纪录片:《第三极》6集全 纪录片里的西藏梦

2021-6-5 20:15:46

4K视频

DTS:X 4K 2019年演示碟

2021-6-6 1:23:33

0 条回复 A文章作者 M管理员
    暂无讨论,说说你的看法吧
个人中心
今日签到
有新私信 私信列表
搜索