央视首部4K纪录片:《第三极》6集全 纪录片里的西藏梦

  • 大小 14.26Gb
  • 格式 mkv

央视首部4K纪录片:《第三极》6集全 纪录片里的西藏梦

释放双眼,带上耳机,听听看~!

大小:14.26 GB   类型: Documentaries   媒介: WEB-DL   编码: H.264/AVC   音频编码: AAC   分辨率: 4K

◎译  名 Roof of the World
◎片  名 第三极
◎年  代 2015
◎产  地 中国大陆
◎类  别 纪录片
◎语  言 汉语普通话 / 藏语
◎上映日期 2015-03-25(中国大陆)
◎豆瓣评分 9.3/10 from 12250 users
◎豆瓣链接 https://movie.douban.com/subject/26258064/
◎集  数 6
◎片  长 46分钟
◎导  演 曾海若
◎编  剧 曾海若

◎标  签 纪录片 | 西藏 | 第三极 | 中国 | 自然 | 2015 | 许巍 | 曾海若

◎简  介  

  首部全面反映青藏高原人与自然和谐相处的纪录片《第三极》,每集46分钟,共6集,以近40个故事的体量讲述青藏之美。影片展现了生活在全球海拔最高地区青藏高原上的人类,个体的生存与家族的幸福,人与自然之间的令人惊叹的平衡,以及在这种极端严峻的自然环境中人类生命的坚韧,和由此锻 造出的心灵的善良、智慧和友爱。

    大型纪录片《第三极》由国务院新闻办公室、中央电视台、北京五星传奇文化传媒有限公司联合出品,全程在青藏高原拍摄,深入60多处秘境,转场10万公里,拍摄500多天,投资2000多万元,可谓全球迄今最全面的西藏自然人文影像考察。

  关注人与自然在其中的和谐共生,是纪录片《第三极》的主题。故事内核分别是家庭幸福、文化传承及生态保护。《第三极》总导演曾海若介绍,如果将青藏高原比作一幢大楼,《第三极》则呈现了每个楼层的住民的生存状态。本片出动6个调研小组,4个摄制小组,深入青藏高原60多处秘境,转场10万公里,拍摄了超过1000多个小时的4K超高清素材。

  “每个拍纪录片的人都有一个拍西藏的梦。”本片制片人杜兴介绍。为了这个梦,剧组进行了漫长的调研工作,与专家学者和当地人士多次研讨;派出6个调研小组实地考察,发掘故事;并且为了能够完整地呈现西藏,花了很多时间与各部门沟通、申请批文,“比如冈仁波齐马年转山,我们获得了全球唯一的拍摄许可。”

  《第三极》是迄今投资规模最大的涉藏纪录片。该片主题音乐则由与班得瑞、久石让、恩雅等“新世纪”音乐流派名家齐名的日本音乐团体神思者打造。此外,本片还是中国首部采用4K分辨率的纪录片。杜兴介绍,4K影片分辨率是全高清的4倍,高清的9倍,画面更加锐利、层次更加明显、色彩更加绚烂, 观众可以看清画面中更多的细节和特写。如张艺谋的《归来》就是国内首部4K电影。相比同样时间的影片,4K影片的文件大小是其10倍。

  杜兴透露,《第三极》还将制作一部90分钟片长的电影纪录片,电影与电视版本将讲述不同的故事,预计于今年年底与国内外观众见面。

◎分集剧情

  • 第一集

《生命之伴》——讲述人与动物相处的奥秘
在青藏高原,人类与动物,建立起了互相需要和信任的关系,藏族人的文化传统,也为保护野生动物,创造
了天然的基础。
林周,一个农妇细心救助了一只飞来越冬,受伤的黑颈鹤。在藏北,一户居民虽然自家的羊被狼吃掉了,依然救下了风雪中的狼崽。摄制组还跟踪拍摄了在青海研究雪豹的世界专家,乔治夏勒的一段经历。当然,在高原上更重要的,是那些已经和人类建立起密切关系的动物,比如藏獒,青海一家牧民寻找小藏獒的故事,颇为曲折。还有放生羊,在拉萨,一个老人和一只羊的故事。

  • 第二集

《一片热土》——讲述人们如何享用大自然的恩赐延续文化
虽然气温较低,但是强烈的日照弥补了温度的不足,青藏高原也拥有着富饶的土地。
狼毒草,被用来制作成藏纸,又经历古老的雕版印刷术,制作了属于藏族人的书籍。在圣湖当惹雍错边上,人们欢庆一年一度的开耕节,种植青稞。在喜马拉雅山的峡谷里,人们利用有限的土地,种植了神秘的鸡爪谷。收获后的欢歌。还有鸡爪谷酒的热烈。采集悬崖上巨大的蜂巢。蜂蜡最终运到尼泊尔,制作佛像模具。在山南,人们治理风沙,以使土地回归富饶。在所有的故事中,人们从土地中获取了某种收获,也回馈给土地旺盛的生命力。

  • 第三集

《高原之歌》——讲述雪域高原上的草原生活
相比南极北极,第三极更富有色彩,这里有大片的绿色,草原。本集讲述的是草原牧场的故事。安多赛马节上,盛大的场面,展现了牧民的精神风貌。
这集中您会看到人们用传统的方式驯马,在海拔超过五千米的村子,牧民在一年中最寒冷的时候,利用结冰的湖面,运输羊群到小岛上吃草,牧民背着那些不能行走的羊以及母羊在小岛上产下羊羔等等一个个令人感动的场面。本集还介绍了说唱草原英雄格萨尔的艺人,他同时是一位大学生,完成的是国家的课题,这正是草原上发生着的新鲜变化。

  • 第四集

《上善之水》——讲述人们与水之间的故事
高原是亚洲大河的主要发源地,人们在崇拜土地的同时,也崇拜着水。本集讲述的是高原之水的力量。全片以印度人的神山圣湖之旅开始,他们朝拜的是恒河的一个重要源头,冈仁波齐和玛旁雍错。在横断山脉,人们创造了大片的盐田来制作盐,盐的来源是澜沧江边的卤水泉眼。在雅鲁藏布江流域,人们以水车制作藏香。西藏唯一一个捕鱼的村落,制作牛皮筏、跳牛皮筏舞、下水捕鱼。本集还跟踪拍摄了萨嘎达瓦节上,寺庙制作沙画坛城的故事。水不光是在地上,还在地下,在亚东,神奇的温泉,也造福了这里的人们。

  • 第五集

《大山儿女》——讲述高原人们对山的情感
地壳运动,抬升了青藏高原,连绵的山脉,成为世界的屋脊。本集讲述的是,山对高原人类的意义。
距离珠峰最近的居民,是守护上绒布寺的喇嘛,他经常为登珠峰的人们祈福。在雅鲁藏布大峡谷,一个门巴村寨世代制作石锅,刚刚通车的墨脱公路,给村子带来了更大的商机。在米林的深山里,珞巴族老猎人一直努力把民族的文化传承给正在上学的小孙子。在横断山脉的嘎玛沟,一位画唐卡的老艺人,为了救治一只得病的牛,暂时放下手中的唐卡创作。在冈底斯山的主峰,冈仁波齐脚下,人们磕长头转山,为他人祈福生活的美满。

  • 第六集

《高原相遇》——讲述拍摄背后的故事
《第三极》转场拍摄行程超过十万公里,摄制组所拍摄的每一个故事背后都有一条不一样的路。本集讲述摄制中发生的故事。
有寻找黑颈鹤的艰辛。有拍摄夏尔巴人采摘蜂巢时的惊险。有在海拔超过5000米结冰的湖泊冰潜时的挑战。有遇见西藏唯一一个大学生身份的神授说唱艺人时的惊讶。还有遇见湖边修行老人时的温暖与感动。高原上的人们在继承传统生活方式的同时,也积极拥抱现代化的生活方式。在拍摄过程中,我们感受到那里人们给予的热情和包容,他们的纯朴、善良、勤劳也时时打动着摄制组。

◎获奖情况  

  第19届上海国际电影节(2016)
  金爵奖 最佳纪录片(提名)

  第13届中国(广州)国际纪录片节(2015)
  “金红棉”国际纪录片评优单元 最佳纪录长片

General
ID                                       : 1 (0x1)
Complete name                            : CCTV9.Roof.of.the.World.E01-E06.HDTV.1080i.H264-NGB\CCTV9.Roof.of.the.World.E01.HDTV.1080i.H264-NGB.ts
Format                                   : MPEG-TS
File size                                : 2.65 GiB
Duration                                 : 45 min 59 s
Overall bit rate mode                    : Variable
Overall bit rate                         : 8 260 kb/s

Video
ID                                       : 4060 (0xFDC)
Menu ID                                  : 1 (0x1)
Format                                   : AVC
Format/Info                              : Advanced Video Codec
Format profile                           : High@L4
Format settings                          : CABAC / 3 Ref Frames
Format settings, CABAC                   : Yes
Format settings, Reference frames        : 3 frames
Codec ID                                 : 27
Duration                                 : 45 min 59 s
Bit rate                                 : 7 658 kb/s
Width                                    : 1 920 pixels
Height                                   : 1 080 pixels
Display aspect ratio                     : 16:9
Frame rate                               : 25.000 FPS
Standard                                 : Component
Color space                              : YUV
Chroma subsampling                       : 4:2:0
Bit depth                                : 8 bits
Scan type                                : Interlaced
Scan type, store method                  : Separated fields
Scan order                               : Top Field First
Bits/(Pixel*Frame)                       : 0.148
Stream size                              : 2.46 GiB (93%)
Color range                              : Limited
Color primaries                          : BT.709
Transfer characteristics                 : BT.709
Matrix coefficients                      : BT.709

Audio
ID                                       : 4061 (0xFDD)
Menu ID                                  : 1 (0x1)
Format                                   : MPEG Audio
Format version                           : Version 1
Format profile                           : Layer 2
Codec ID                                 : 3
Duration                                 : 45 min 59 s
Bit rate mode                            : Constant
Bit rate                                 : 192 kb/s
Channel(s)                               : 2 channels
Sampling rate                            : 48.0 kHz
Frame rate                               : 41.667 FPS (1152 SPF)
Compression mode                         : Lossy
Stream size                              : 63.2 MiB (2%)
Language                                 : English

文章链接:https://www.bt4k.cn/38041.html
文章标题:央视首部4K纪录片:《第三极》6集全 纪录片里的西藏梦
文章版权:本站绝大部分文章均为原创,如您需要转载至别的平台,请注明出处;同时本站还有一部分软件资源和4K视频测试素材,这部分资源均是通过互联网收集而来,通过网盘形式分享给广大网友。下载所需的积分均可通过日常签到以及相关任务获取!如您认为本站有内容涉及侵犯您的版权,请及时联系我们,我们确认后会第一时间删除。

下载权限

查看
  • 免费下载
    评论并刷新后下载
    登录后下载

  • {{attr.name}}:
您当前的等级为
登录后免费下载登录 小黑屋反思中,不准下载! 评论后刷新页面下载评论 支付以后下载 请先登录 支付积分以后下载立即支付 支付以后下载立即支付 您当前的用户组不允许下载升级会员
您有每天免费下载所有资源次的特权,今日剩余 已取得下载权限

为TA充电
人已赞赏
网络营销

企业新站设计策划的一些建议

2021-5-27 14:43:24

4K视频

4K DTS演示碟 2020 VOL.24

2021-6-6 1:12:41

0 条回复 A文章作者 M管理员
    暂无讨论,说说你的看法吧
个人中心
今日签到
有新私信 私信列表
搜索